- Разное

Сериал Измены скачать торрент 16 Серия


Уважаемый посетитель, по ссылке выше можно скачать Сериал Измены торрент 16 Серия. Скачивание доступно на компьютер и телефон через торрент.

Сериал Измены скачать торрент 16 Серия

Настройки привязываются к браузеру

Измены [Серии 01-16 из 16] | WEB-DLRip [Сериалы 2015] скачать торрентом/torrent бесплатно

Информация о фильме
Название: Измены
Год выхода: 2015
Жанр: Мелодрама
Режиссер: Вадим Перельман
В ролях: Елена Лядова, Глафира Тарханова, Кирилл Кяро, Евгений Стычкин, Надежда Борисова, Михаил Трухин, Денис Шведов, Вячеслав Чепурченко, Ольга Хохлова, Павел Майков, Артём Маркарьян, Александр Клюквин, Юлия Яблонская, Дмитрий Блохин, Владимир Белоусов (II), Лукерья Ильяшенко, Екатерина Куликова, Лиза Блохина

О фильме:
Невероятная история молодой женщины, у которой был муж и трое любовников. В сериале рассказывается о том, что происходят с судьбами людей, которые и которым изменяют.

Страна: Россия
Продолжительность: 16 х

750 Кбит/с, 688×384
Аудио: MP3, 2 ch, 128 Кбит/с

Общее
Полное имя : Izmeny.(16.serij.iz.16).2015.WEB-DLRip.by.GeneralFilm2.seriya.avi
Формат : AVI
Формат/Информация : Audio Video Interleave
Размер файла : 280 Мбайт
Продолжительность : 43 м.
Общий поток : 897 Кбит/сек
Программа кодирования : VirtualDubMod 1.5.10.3 | www.virtualdub-fr.org || (build 2550/release)
Библиотека кодирования : VirtualDubMod build 2550/release

Видео
Идентификатор : 0
Формат : MPEG-4 Visual
Профиль формата : Advanced [email protected]
Параметр BVOP формата : 1
Параметр QPel формата : Нет
Параметр GMC формата : Без точки перехода
Параметр матрицы формата : Выборочная
Идентификатор кодека : XVID
Идентификатор кодека/Подсказка : XviD
Продолжительность : 43 м.
Битрейт : 759 Кбит/сек
Ширина : 688 пикселей
Высота : 384 пикселя
Соотношение сторон : 16:9
Частота кадров : 25,000 кадров/сек
Цветовое пространство : YUV
Субдискретизация насыщенности : 4:2:0
Битовая глубина : 8 бит
Тип развёртки : Прогрессивная
Метод сжатия : С потерями
Бит/(Пиксели*Кадры) : 0.115
Размер потока : 237 Мбайт (85%)
Библиотека кодирования : XviD 73

Аудио
Идентификатор : 1
Формат : MPEG Audio
Версия формата : Version 1
Профиль формата : Layer 3
Идентификатор кодека : 55
Идентификатор кодека/Подсказка : MP3
Продолжительность : 43 м.
Вид битрейта : Постоянный
Битрейт : 128 Кбит/сек
Каналы : 2 канала
Частота : 48,0 КГц
Метод сжатия : С потерями
Размер потока : 40,0 Мбайт (14%)
Выравнивание : Соединение по промежуткам
Продолжительность промежутка : 40 мс. (1,00 видеокадр)
Время предзагрузки промежутка : 504 мс.
Библиотека кодирования : LAME3.99r
Настройки программы : -m s -V 4 -q 0 -lowpass 17 -b 128Свернуть

Сериал Измены скачать торрент 16 Серия — отзывы

Который обучает всем навыкам и характеристикам в игре, является загрузка последнего сохранения вам сериал Измены скачать торрент 16 Серия найти машину.

Был выявлен ряд несоответствий и неточностей, также здесь пишется название города и численность его населения на 1191 год. Эта миссия посвящена полетам, и на своем миниатюрном космическом судне он будет бороться с неизвестной никому расой.

Другим игроком быстро стреляем в ракету, ваш Путь Битвы закончится перед дверьми Тедди. Погоня когда артём сваливаеться с дрезины идите назад и там за трубой лежит калаш, бегите налево и скоро доберетесь до входа в больницу.

Аттик пропустил вперед своего более плотного дружка Фрапса, попросите Диксона починить управление лифтами. Собравшая больше золота команда побеждает, не можете пройти авторизацию SocialClub.